Fórum Debian

Versão Completa: Problemas com ffmpeg
Você está atualmente visualizando uma versão simplificada do conteúdo. Visualizar a versão completa com formatação.
Dá esse problema qdo tento converter:

FFmpeg version SVN-rUNKNOWN, Copyright © 2000-2007 Fabrice Bellard, et al.
configuration: --enable-gpl --enable-pp --enable-swscaler --enable-pthreads --enable-libvorbis --enable-libtheora --enable-libogg --enable-libgsm --enable-dc1394 --disable-debug --enable-shared --prefix=/usr
libavutil version: 1d.49.3.0
libavcodec version: 1d.51.38.0
libavformat version: 1d.51.10.0
built on Mar 12 2008 14:31:53, gcc: 4.2.3 (Ubuntu 4.2.3-2ubuntu4)
Input #0, mov,mp4,m4a,3gp,3g2,mj2, from '/home/rafael/Vídeos/Two and a Half Men/Two.And.a.Half.Men.S05E12.H264.Legendado.Eduandy.Filewarez.Tv.mp4':
Duration: 00:21:37.6, start: 0.000000, bitrate: 357 kb/s
Stream #0.0(und): Audio: mp4a / 0x6134706D, 24000 Hz, mono
Stream #0.1(und): Video: h264, yuv420p, 624x352, 23.98 fps®
Unknown codec 'aac'

Alguem sabe o que posso fazer?

Tenho os codecs devidamente instalados! Consigo ver qualquer video!

flw
tenta instalar os libsox:
# aptitude search libsox
URL de Referência